Псково-Печерская обитель (2007) DVDRip (расширенная версия)

 
 Статистика раздачи 
Размер: 1.24 ГБ   |  Зарегистрирован: 14 май 2018, 15:40   |   .torrent скачан: 0 раз
Сидеров: 1  [ 0 байт/сек ]     Личеров: 0  [ 0 байт/сек ]  
  

Псково-Печерская обитель (2007) DVDRip (расширенная версия)

Сообщение explosiveone » 14 май 2018, 15:40

Псково-Печерская обитель (2007) DVDRip (расширенная версия)

Телекомпания: Телеканал «Спас»
Жанр: Документальный
Год выпуска: 2007
Автор: Архимандрит Тихон (Шевкунов)

Описание:
Этот фильм был снят в 1986 году в Псково-Печерском монастыре, когда были еще живы многие старцы, такие как архимандрит Серафим, архимандрит Феофан, схиархимандрит Александр, архимандрит Нафанаил, схиигумен Мелхиседек, архимандрит Иоанн. Вы увидите уникальные кадры, запечатлевшие удивительных и великих подвижников, которым Господь судил прожить большую часть их жизни в годы гонений. Они смогли, по слову апостола Павла, подвизаясь добрым подвигом, сохранить сокровище веры и принести Богу совершенный духовный плод христианской жизни: «любовь, радость, мир, долготерпение, благость, милосердие, веру, кротость, воздержание». Апостол Павел добавляет именно о таких людях Божиих: «на таковых нет закона… — те, которые Христовы, распяли плоть со страстями и похотями».


Продолжительность: 01:18:05
Качество видео: DVDRip
Субтитры: отсутствуют

Видео: Xvid, 720x544 (4:3), ~2000 Кбит/сек,
Аудио: AC3, 2 ch, 256 Кбит/сек
Код: Выделить всё
Общее
Полное имя                               : E:\Псково-печерская обитель.avi
Формат                                   : AVI
Формат/Информация                        : Audio Video Interleave
Профиль формата                          : OpenDML
Размер файла                             : 1,24 Гбайт
Продолжительность                        : 1 ч. 18 м.
Общий поток                              : 2269 Кбит/сек
Кодирование произвёл                     : andrejpushkaryov
Программа кодирования                    : Lavf57.71.100

Видео
Идентификатор                            : 0
Формат                                   : MPEG-4 Visual
Профиль формата                          : Advanced [email protected]
Настройки формата                        : BVOP1
Параметр BVOP формата                    : 1
Параметр QPel формата                    : Нет
Параметр GMC формата                     : Без точки перехода
Параметр матрицы формата                 : Default (H.263)
Идентификатор кодека                     : XVID
Идентификатор кодека/Подсказка           : XviD
Продолжительность                        : 1 ч. 18 м.
Битрейт                                  : 2000 Кбит/сек
Ширина                                   : 720 пикселей
Высота                                   : 544 пикселя
Соотношение сторон                       : 4:3
Частота кадров                           : 25,000 кадров/сек
Цветовое пространство                    : YUV
Субдискретизация насыщенности            : 4:2:0
Битовая глубина                          : 8 бит
Тип развёртки                            : Прогрессивная
Метод сжатия                             : С потерями
Бит/(Пиксели*Кадры)                      : 0.204
Размер потока                            : 1,09 Гбайт (88%)
Библиотека кодирования                   : XviD 67

Аудио
Идентификатор                            : 1
Формат                                   : AC-3
Формат/Информация                        : Audio Coding 3
Идентификатор кодека                     : 2000
Продолжительность                        : 1 ч. 18 м.
Вид битрейта                             : Постоянный
Битрейт                                  : 256 Кбит/сек
Каналы                                   : 2 канала
Расположение каналов                     : Front: L R
Частота                                  : 48,0 КГц
Частота кадров                           : 31,250 кадров/сек (1536 SPF)
Битовая глубина                          : 16 бит
Метод сжатия                             : С потерями
Размер потока                            : 143 Мбайт (11%)
Выравнивание                             : Соединение по промежуткам
Продолжительность промежутка             : 32  мс. (0,80 видеокадр)
ServiceKind/String                       : Complete Main

Скриншоты:




Время раздачи: 24/7 (круглосуточно) (до появления первых 3-5 скачавших)
 
Не забывайте говорить Спасибо. Не уходите с раздачи!   
Торрент: Зарегистрирован [14 май 2018, 15:40] Для скачивания .torrent
необходима регистрация
Или скачать с помощью
MediaGet
Статус:
Проверен
 
.torrent скачан: 0 раз
Хэш: 78671ae0f7c2b2a42b55e77111a72a85cb9b8c04
Размер: 1.24 ГБ (1 329 068 146 байт)
Стать Автором раздачи
 
 
Раздал: 100 ГБ
Скачал: 0 байт
Ратио: Seed.
Сообщения: 100000
Зарегистрирован: 09 апр 2015, 22:31


Вернуться в Вера и религия (видео)

Кто сейчас на конференции

Сейчас эту тему просматривают: нет зарегистрированных пользователей и гости: 1

Ресурс не предоставляет электронные версии произведений, а занимается лишь коллекционированием и каталогизацией ссылок, присылаемых и публикуемых на форуме нашими читателями. Если вы являетесь правообладателем какого-либо представленного материала и не желаете чтобы ссылка на него находилась в нашем каталоге, свяжитесь с нами и мы незамедлительно удалим её. Файлы для обмена на трекере предоставлены пользователями сайта, и администрация не несёт ответственности за их содержание. Просьба не заливать файлы, защищенные авторскими правами, а также файлы нелегального содержания!